+ ShareSpark.net »  :::: Bollywood Zone » Pakistani / Urdu Movies
|- Punjab Nahi Jaungi (2017) WEB TVRip 720p Urdu H.264 AAC


TV and Appliances

Punjab Nahi Jaungi (2017) WEB TVRip 720p Urdu H.264 AAC

0 Members and 1 Guest are viewing this topic.

June 19, 2018, 03:07:56 PM
  • ***************
  • Team SSX
  • Legend Member
  • ***
  • Topic Author
  • Thank You: 1820
  • Reputation: 552
  • Activity:
    100%
  • Country: pk
  • Posts: 1925
  • Topics: 1211
  • Join Date: Mar 2015
  • =$ Success Never Ends $=
Punjab Nahi Jaungi (2017) WEB TVRip 720p Urdu H.264 AAC







INFO




General

Format : MPEG-4
Format profile : Base Media
Codec ID : isom (isom/iso2/avc1/mp41)
File size : 990 MiB
Duration : 2 h 30 min
Overall bit rate : 917 kb/s
Writing application : Lavf57.83.100

Video

ID : 1
Format : AVC
Format/Info : Advanced Video Codec
Format profile : [email protected]
Format settings : CABAC / 1 Ref Frames
Format settings, CABAC : Yes
Format settings, ReFrames : 1 frame
Format settings, GOP : M=1, N=30
Codec ID : avc1
Codec ID/Info : Advanced Video Coding
Duration : 2 h 30 min
Bit rate : 657 kb/s
Width : 1 280 pixels
Height : 720 pixels
Display aspect ratio : 16:9
Frame rate mode : Variable
Frame rate : 25.000 FPS
Minimum frame rate : 9.091 FPS
Maximum frame rate : 27.778 FPS
Color space : YUV
Chroma subsampling : 4:2:0
Bit depth : 8 bits
Scan type : Progressive
Bits/(Pixel*Frame) : 0.029
Stream size : 709 MiB (72%)

Audio

ID : 2
Format : AAC
Format/Info : Advanced Audio Codec
Format profile : LC
Codec ID : mp4a-40-2
Duration : 2 h 29 min
Bit rate mode : Constant
Bit rate : 256 kb/s
Channel(s) : 2 channels
Channel positions : Front: L R
Sampling rate : 44.1 kHz
Frame rate : 43.066 FPS (1024 SPF)
Compression mode : Lossy
Stream size : 273 MiB (28%)
Default : Yes
Alternate group : 1






 :ss:








 :download:




















Dont Forget Sharing May Hobby

Click BY

Thanks     +Repute

Share this topic on FacebookShare this topic on GoogleShare this topic on MySpaceShare this topic on TwitterShare this topic on Yahoo



Thanks given by:


Tags:
 

Related Topics





Back to top
Rare ancien Point Timbre Tintin Clé d'or TBE | CHRISTOFLE rare boite argent massif sterling 925 | Bretelle donna uomo straccali suspenders regolabili elastiche,