+ ShareSpark.net »  :::: Bollywood Zone » Pakistani / Urdu Movies
|- Punjab Nahi Jaungi (2017) Pakistani Movie 1080p BluRay HD [Humayun Saeed Mehwish Hayat]~MaLiK ZEE~


100% Bill Offer

Punjab Nahi Jaungi (2017) Pakistani Movie 1080p BluRay HD [Humayun Saeed Mehwish Hayat]~MaLiK ZEE~

0 Members and 1 Guest are viewing this topic.

June 28, 2018, 03:08:21 AM
Punjab Nahi Jaungi (2017) Pakistani Movie 1080p BluRay HD [Humayun Saeed Mehwish Hayat]~MaLiK ZEE~


Quote
General
Format                      : Matroska
Format version              : Version 2
File size                   : 5.89 GiB
Duration                    : 2 h 32 min
Overall bit rate            : 5 549 kb/s
Writing application         : Lavf51.12.1
Writing library             : Lavf51.12.1

Video
ID                          : 1
Format                      : AVC
Format/Info                 : Advanced Video Codec
Format profile              : [email protected]
Format settings             : 1 Ref Frames
Format settings, CABAC      : No
Format settings, ReFrames   : 1 frame
Format settings, GOP        : M=1, N=12
Codec ID                    : V_MPEG4/ISO/AVC
Duration                    : 2 h 32 min
Bit rate                    : 5 311 kb/s
Width                       : 1 948 pixels
Height                      : 816 pixels
Display aspect ratio        : 2.40:1
Frame rate mode             : Constant
Frame rate                  : 25.000 FPS
Color space                 : YUV
Chroma subsampling          : 4:2:0
Bit depth                   : 8 bits
Scan type                   : Progressive
Bits/(Pixel*Frame)          : 0.134
Stream size                 : 5.64 GiB (96%)
Default                     : Yes
Forced                      : No

Audio
ID                          : 2
Format                      : MPEG Audio
Format version              : Version 1
Format profile              : Layer 3
Format settings             : Joint stereo / MS Stereo
Codec ID                    : A_MPEG/L3
Codec ID/Hint               : MP3
Duration                    : 2 h 32 min
Bit rate mode               : Constant
Bit rate                    : 128 kb/s
Channel(s)                  : 2 channels
Sampling rate               : 44.1 kHz
Compression mode            : Lossy
Stream size                 : 139 MiB (2%)
Writing library             : LAME3.97
Language                    : English
Default                     : Yes
Forced                      : No


:ss:












 :sample:
Quote
:download:
Quote

【M】【A】【L】【I】【K】    【Z】【E】【E】【S】【H】【A】【N】

Share this topic on FacebookShare this topic on GoogleShare this topic on MySpaceShare this topic on TwitterShare this topic on Yahoo



Thanks given by:


June 29, 2018, 11:53:39 AM
Reply #1
  • Semi Newbie
  • **
  • Thank You: 0
  • Reputation: 2
  • Activity:
    1%
  • Country: my
  • Posts: 33
  • Topics: 0
  • Join Date: Mar 2018
  • ShareSpark Member

July 01, 2018, 09:55:40 PM
Reply #2
  • LaDLa PriNce
  • Addic7ed (Inactive)
  • Legend Member
  • ****
  • Thank You: 213
  • Reputation: 91
  • Activity:
    0.2%
  • Country: pk
  • Posts: 1777
  • Topics: 161
  • Join Date: Sep 2012
  • I <3 ShareSpark
Pakistani Movie Kab Bluray Mein Release Hui Hai
WebRip Ko Bluray Mein Bata Rahe Ho

Tags: special26 
 

Related Topics





Back to top
Glory Sound Prep | Spitfire 720p | 1080p Legendado – Torrent Download (2018) | 11 16 2017-03-29Duck Dynasty - End of an Era, Part 2