+ ShareSpark.net »  :::: Bollywood Zone » Pakistani / Urdu Movies
|- Chupan Chupai (2017) UNTOUCHED HDTV 480p Urdu H.264 AAC [EXCLUSIVE (Shahzaib Shah)


Amazon Pantry Offer

Chupan Chupai (2017) UNTOUCHED HDTV 480p Urdu H.264 AAC [EXCLUSIVE (Shahzaib Shah)

0 Members and 1 Guest are viewing this topic.

June 28, 2018, 02:10:23 PM
  • ***************
  • Team SSX
  • Legend Member
  • ***
  • Topic Author
  • Thank You: 1820
  • Reputation: 552
  • Activity:
    100%
  • Country: pk
  • Posts: 1925
  • Topics: 1211
  • Join Date: Mar 2015
  • =$ Success Never Ends $=
Chupan Chupai (2017) UNTOUCHED HDTV 480p Urdu H.264 AAC [EXCLUSIVE (Shahzaib Shah)







Quote
General

Format                      : Matroska
Format version              : Version 4 / Version 2
File size                   : 370 MiB
Duration                    : 1 h 52 min
Overall bit rate            : 461 kb/s
Movie name                  : LatestHDMovies | TeamSHAHID
Encoded date                : UTC 2018-06-27 13:53:50
Writing application         : mkvmerge v24.0.0 ('Beyond The Pale') 32-bit
Writing library             : libebml v1.3.6 + libmatroska v1.4.9
Cover                       : Yes
Attachments                 : Cover.jpg

Video

ID                          : 1
Format                      : AVC
Format/Info                 : Advanced Video Codec
Format profile              : [email protected]
Format settings             : CABAC / 3 Ref Frames
Format settings, CABAC      : Yes
Format settings, ReFrames   : 3 frames
Codec ID                    : V_MPEG4/ISO/AVC
Duration                    : 1 h 52 min
Bit rate                    : 331 kb/s
Width                       : 854 pixels
Height                      : 480 pixels
Display aspect ratio        : 16:9
Frame rate mode             : Constant
Frame rate                  : 25.000 FPS
Color space                 : YUV
Chroma subsampling          : 4:2:0
Bit depth                   : 8 bits
Scan type                   : Progressive
Bits/(Pixel*Frame)          : 0.032
Stream size                 : 265 MiB (72%)
Language                    : Urdu
Default                     : Yes
Forced                      : No

Audio

ID                          : 2
Format                      : AAC
Format/Info                 : Advanced Audio Codec
Format profile              : LC
Codec ID                    : A_AAC-2
Duration                    : 1 h 52 min
Bit rate                    : 128 kb/s
Channel(s)                  : 2 channels
Channel positions           : Front: L R
Sampling rate               : 44.1 kHz
Frame rate                  : 43.066 FPS (1024 SPF)
Compression mode            : Lossy
Delay relative to video     : 12 ms
Stream size                 : 103 MiB (28%)
Language                    : Urdu
Default                     : Yes
Forced                      : No



 :ss:


















 :download:

















Share this topic on FacebookShare this topic on GoogleShare this topic on MySpaceShare this topic on TwitterShare this topic on Yahoo




Tags:
 

Related Topics

  Subject / Started by Replies Last post
4 Replies
2576 Views
Last post October 01, 2016, 03:40:36 PM
by ♥♫ мsмαнмυð ♥♫
0 Replies
911 Views
Last post April 27, 2017, 03:29:09 AM
by PSYCHO
0 Replies
768 Views
Last post May 29, 2018, 03:11:59 PM
by shahzaibjaan
1 Replies
531 Views
Last post August 01, 2018, 10:33:40 PM
by JackRoSe
0 Replies
195 Views
Last post September 09, 2018, 02:03:14 PM
by shahzaibjaan




Back to top
Paradise Police Paradise PD GENERE : Animazione NAZIONALITA' : USA ANNO : 2018 | Crime and Punishment (Character Suffering) | Honda CB 450 K1-2 1969, garde-boue / Kotflügel