+ ShareSpark.net »  :::: Bollywood Zone » Pakistani / Urdu Movies
|- Dobara Phir Se 2016 - URDU - 720p - WEBHD - AVC - AAC ~MaLiK ZEE~


Mastercard 10% Off

Dobara Phir Se 2016 - URDU - 720p - WEBHD - AVC - AAC ~MaLiK ZEE~

0 Members and 1 Guest are viewing this topic.

July 25, 2018, 01:12:19 PM
Dobara Phir Se 2016 - URDU - 720p - WEBHD - AVC - AAC ~MaLiK ZEE~



Quote
General
Complete name                            : Dobara Phir Se 2016 - URDU - 720p - WEBHD - AVC - AAC -
Format                                   : MPEG-4
Format profile                           : Base Media / Version 2
Codec ID                                 : mp42 (isom/mp42)
File size                                : 941 MiB
Duration                                 : 2 h 6 min
Overall bit rate mode                    : Variable
Overall bit rate                         : 1 039 kb/s
Encoded date                             : UTC 2017-09-04 21:25:26
Tagged date                              : UTC 2017-09-04 21:25:26
gsst                                     : 0
gstd                                     : 7599728

Video
ID                                       : 1
Format                                   : AVC
Format/Info                              : Advanced Video Codec
Format profile                           : [email protected]
Format settings, CABAC                   : Yes
Format settings, RefFrames               : 3 frames
Codec ID                                 : avc1
Codec ID/Info                            : Advanced Video Coding
Duration                                 : 2 h 6 min
Bit rate                                 : 910 kb/s
Width                                    : 1 280 pixels
Height                                   : 720 pixels
Display aspect ratio                     : 16:9
Frame rate mode                          : Constant
Frame rate                               : 24.000 FPS
Color space                              : YUV
Chroma subsampling                       : 4:2:0
Bit depth                                : 8 bits
Scan type                                : Progressive
Bits/(Pixel*Frame)                       : 0.041
Stream size                              : 824 MiB (88%)
Title                                    : ISO Media file produced by Google Inc. Created on: 09/04/2017.
Encoded date                             : UTC 2017-09-04 21:25:26
Tagged date                              : UTC 2017-09-04 21:25:26
Color range                              : Limited
Color primaries                          : BT.709
Transfer characteristics                 : BT.709
Matrix coefficients                      : BT.709

Audio
ID                                       : 2
Format                                   : AAC
Format/Info                              : Advanced Audio Codec
Format profile                           : LC
Codec ID                                 : 40
Duration                                 : 2 h 6 min
Bit rate mode                            : Variable
Bit rate                                 : 126 kb/s
Channel(s)                               : 2 channels
Channel positions                        : Front: L R
Sampling rate                            : 44.1 kHz
Frame rate                               : 43.066 FPS (1024 SPF)
Compression mode                         : Lossy
Stream size                              : 114 MiB (12%)
Title                                    : ISO Media file produced by Google Inc. Created on: 09/04/2017.
Encoded date                             : UTC 2017-09-04 21:25:26
Tagged date                              : UTC 2017-09-04 21:25:26

 :ss:


 :download:
Quote

【M】【A】【L】【I】【K】    【Z】【E】【E】【S】【H】【A】【N】

Share this topic on FacebookShare this topic on GoogleShare this topic on MySpaceShare this topic on TwitterShare this topic on Yahoo



Thanks given by:


August 12, 2018, 12:59:05 PM
Reply #1
  • Royal Member
  • ****
  • Thank You: 1
  • Reputation: 1
  • Activity:
    3.8%
  • Posts: 854
  • Topics: 2
  • Join Date: Apr 2012
  • ShareSpark Member

Tags:
 

Related Topics





Back to top
└ PC- & Videospiele | SHIPPED FROM OVERSEAS Generic 3 in 1 Phone Camera Lenses Fish Eye+0.65X Super Wide Angle Lens Silver KSh 1,380 Buy now | Mr.Simple.mp3