+ ShareSpark.net »  :::: Bollywood Zone » Pakistani / Urdu Movies
|- Actor In Law (2016) UnTouched - 1080p - WebHD - AVC - AAC - DUS - 3.51 GB~MaLiK ZEE~


One Plus 6

Actor In Law (2016) UnTouched - 1080p - WebHD - AVC - AAC - DUS - 3.51 GB~MaLiK ZEE~

0 Members and 1 Guest are viewing this topic.

July 25, 2018, 01:27:59 PM
Actor In Law (2016) UnTouched - 1080p - WebHD - AVC - AAC - DUS - 3.51 GB~MaLiK ZEE~


Quote
General
Complete name               : D:\Actor In Law (2016) - UnTouched WebHD - 1080p - AVC AAC - DUS
Format                      : MPEG-4
Format profile              : Base Media
Codec ID                    : isom (isom/iso2/avc1/mp41)
File size                   : 2.61 GiB
Duration                    : 1 h 55 min
Overall bit rate mode       : Variable
Overall bit rate            : 3 249 kb/s
Encoded date                : UTC 2017-05-17 17:01:42
Tagged date                 : UTC 2017-05-17 17:01:42

Video
ID                          : 1
Format                      : AVC
Format/Info                 : Advanced Video Codec
Format profile              : [email protected]
Format settings, CABAC      : Yes
Format settings, ReFrames   : 2 frames
Codec ID                    : avc1
Codec ID/Info               : Advanced Video Coding
Duration                    : 1 h 55 min
Bit rate                    : 3 120 kb/s
Width                       : 1 920 pixels
Height                      : 1 080 pixels
Display aspect ratio        : 16:9
Frame rate mode             : Constant
Frame rate                  : 24.000 FPS
Color space                 : YUV
Chroma subsampling          : 4:2:0
Bit depth                   : 8 bits
Scan type                   : Progressive
Bits/(Pixel*Frame)          : 0.063
Stream size                 : 2.51 GiB (96%)
Encoded date                : UTC 2017-05-17 17:01:42
Tagged date                 : UTC 2017-05-17 17:01:42
Color range                 : Limited
Color primaries             : BT.709
Transfer characteristics    : BT.709
Matrix coefficients         : BT.709

Audio
ID                          : 2
Format                      : AAC
Format/Info                 : Advanced Audio Codec
Format profile              : LC
Codec ID                    : 40
Duration                    : 1 h 55 min
Bit rate mode               : Variable
Bit rate                    : 126 kb/s
Channel(s)                  : 2 channels
Channel positions           : Front: L R
Sampling rate               : 44.1 kHz
Frame rate                  : 43.066 FPS (1024 spf)
Compression mode            : Lossy
Stream size                 : 103 MiB (4%)
Default                     : Yes
Alternate group             : 1
Encoded date                : UTC 2017-05-17 17:14:08
Tagged date                 : UTC 2017-05-17 17:14:08

 :ss:








 :download:
Quote





Share this topic on FacebookShare this topic on GoogleShare this topic on MySpaceShare this topic on TwitterShare this topic on Yahoo

« Last Edit: July 25, 2018, 07:04:57 PM by 【M】【A】【L】【I】【K】 【Z】【E】【E】 »


Thanks given by:


Tags:
 

Related Topics





Back to top
Documentary | Tragbare TV | HTC (351)