+ ShareSpark.net »  :::: Bollywood Zone » Pakistani / Urdu Movies
|- Rangreza 2017 x264 720p HD Hindi GOPISAHI


Electroncs Sale

Rangreza 2017 x264 720p HD Hindi GOPISAHI

0 Members and 1 Guest are viewing this topic.

August 12, 2018, 02:17:32 PM
  • ***************
  • Team SSX
  • Legend Member
  • ***
  • Topic Author
  • Thank You: 1821
  • Reputation: 552
  • Activity:
    100%
  • Country: pk
  • Posts: 1925
  • Topics: 1211
  • Join Date: Mar 2015
  • =$ Success Never Ends $=
Rangreza 2017 x264 720p HD Hindi GOPISAHI








Format : Matroska

Format version : Version 4 / Version 2

File size : 539 MiB

Duration : 2 h 6 min

Overall bit rate : 597 kb/s

Movie name : Rangreza 2017 GOPISAHI


Video

Format : AVC

Format/Info : Advanced Video Codec

Codec ID : V_MPEG4/ISO/AVC

Duration : 2 h 6 min

Bit rate : 499 kb/s

Width : 1 280 pixels

Height : 536 pixels

Display aspect ratio : 2.40:1

Frame rate mode : Constant

Frame rate : 24.000 FPS

Color space : YUV

Chroma subsampling : 4:2:0

Bit depth : 8 bits

Scan type : Progressive

Bits/(Pixel*Frame) : 0.030

Stream size : 451 MiB (84%)

Title : GOPISAHI

Writing library : x264 core 155 r2901 7d0ff22


Audio

Format : AAC

Format/Info : Advanced Audio Codec

Duration : 2 h 6 min

Bit rate : 96.0 kb/s

Channel(s) : 2 channels

Channel positions : Front: L R

Sampling rate : 48.0 kHz

Frame rate : 46.875 FPS (1024 SPF)

Compression mode : Lossy

Delay relative to video : -64 ms

Stream size : 86.9 MiB (16%)

Title : GOPISAHI

Language : Hindi





 :ss:







 :download:






















Share this topic on FacebookShare this topic on GoogleShare this topic on MySpaceShare this topic on TwitterShare this topic on Yahoo



Thanks given by:


August 22, 2018, 10:50:44 AM
Reply #1
  • Royal Member
  • ****
  • Thank You: 1
  • Reputation: 1
  • Activity:
    3.8%
  • Posts: 854
  • Topics: 2
  • Join Date: Apr 2012
  • ShareSpark Member
Thanks for sharing .....................

Tags:
 

Related Topics





Back to top
Terms and Conditions | DxO PhotoLab ELITE Edition 1.2.3.82 | Betternet Free VPN