+ ShareSpark.net »  :::: Bollywood Zone » Pakistani / Urdu Movies
|- 7.Din.Mohabbat.In.(2018).HDTV.1080p.Urdu.H264.AAC.[1st.On.Net]~MaLiK ZEE~


Mastercard 10% Off

7.Din.Mohabbat.In.(2018).HDTV.1080p.Urdu.H264.AAC.[1st.On.Net]~MaLiK ZEE~

0 Members and 1 Guest are viewing this topic.

August 25, 2018, 08:47:08 PM
7.Din.Mohabbat.In.(2018).HDTV.1080p.Urdu.H264.AAC.[1st.On.Net]~MaLiK ZEE~



Quote
General
Unique ID                   : 83254120152046570376970736356088652829 (0x3EA2290962653F648DB364C8D458A41D)
Complete name               : C:\Users\latest\Downloads\Video\7.Din.Mohabbat.In.(2018).HDTV.1080p.Urdu.H264.AAC.[1st.On.Net].-.LatestHDMovies.mkv
Format                      : Matroska
Format version              : Version 4 / Version 2
File size                   : 2.00 GiB
Duration                    : 2 h 12 min
Overall bit rate            : 2 172 kb/s
Movie name                  :

Encoded date                : UTC 2018-08-23 11:12:41
Writing application         : mkvmerge v25.0.0 ('Prog Noir') 64-bit
Writing library             : libebml v1.3.6 + libmatroska v1.4.9

Video
ID                          : 1
Format                      : AVC
Format/Info                 : Advanced Video Codec
Format profile              : [email protected]
Format settings             : CABAC / 4 Ref Frames
Format settings, CABAC      : Yes
Format settings, ReFrames   : 4 frames
Codec ID                    : V_MPEG4/ISO/AVC
Duration                    : 2 h 12 min
Bit rate                    : 2 043 kb/s
Width                       : 1 920 pixels
Height                      : 1 080 pixels
Display aspect ratio        : 16:9
Frame rate mode             : Constant
Frame rate                  : 25.000 FPS
Color space                 : YUV
Chroma subsampling          : 4:2:0
Bit depth                   : 8 bits
Scan type                   : Progressive
Bits/(Pixel*Frame)          : 0.039
Stream size                 : 1.88 GiB (94%)
Title                       :

Writing library             : x264 core 148 r2643 5c65704
Encoding settings           : cabac=1 / ref=1 / deblock=1:0:0 / analyse=0x3:0x3 / me=dia / subme=1 / psy=1 / psy_rd=1.00:0.00 / mixed_ref=0 / me_range=16 / chroma_me=1 / trellis=0 / 8x8dct=1 / cqm=0 / deadzone=21,11 / fast_pskip=1 / chroma_qp_offset=0 / threads=12 / lookahead_threads=2 / sliced_threads=0 / nr=0 / decimate=1 / interlaced=0 / bluray_compat=0 / constrained_intra=0 / bframes=3 / b_pyramid=2 / b_adapt=1 / b_bias=0 / direct=1 / weightb=1 / open_gop=0 / weightp=1 / keyint=250 / keyint_min=25 / scenecut=40 / intra_refresh=0 / rc=abr / mbtree=0 / bitrate=2043 / ratetol=1.0 / qcomp=0.60 / qpmin=0 / qpmax=69 / qpstep=4 / ip_ratio=1.40 / pb_ratio=1.30 / aq=1:1.00
Default                     : Yes
Forced                      : No

Audio
ID                          : 2
Format                      : AAC
Format/Info                 : Advanced Audio Codec
Format profile              : LC
Codec ID                    : A_AAC-2
Duration                    : 2 h 12 min
Bit rate                    : 128 kb/s
Channel(s)                  : 1 channel
Channel positions           : Front: C
Sampling rate               : 44.1 kHz
Frame rate                  : 43.066 FPS (1024 SPF)
Compression mode            : Lossy
Delay relative to video     : -46 ms
Stream size                 : 121 MiB (6%)
Title                       :

Language                    : Urdu
Default                     : Yes
Forced                      : No





Category:   Movies > Pakistani
Lang:   Urdu
Total Size:   2.00 GB
Info Hash:   a539ada2528a52bf8381dc994f3662e0ba2a46c3
Added By:   LatestHDMovies
Date Added:   23-08-2018 12:18:48
Views:   418
Hits:   59


 :ss:






 :download:
Quote









Share this topic on FacebookShare this topic on GoogleShare this topic on MySpaceShare this topic on TwitterShare this topic on Yahoo



Thanks given by:


August 26, 2018, 11:45:25 AM
Reply #1
  • Royal Member
  • ****
  • Thank You: 1
  • Reputation: 1
  • Activity:
    3.8%
  • Posts: 854
  • Topics: 2
  • Join Date: Apr 2012
  • ShareSpark Member
Thanks for Sharing ...............................

Tags:
 

Related Topics





Back to top
... more info | The Americans | Oseam Movie