+ ShareSpark.net »  :::: Bollywood Zone » Pakistani / Urdu Movies
|- Teefa in Trouble 2018 Urdu 1080p NF WEB-DL H264 DDP 5.1 NbT


10% SBI and 10% Discount

Teefa in Trouble 2018 Urdu 1080p NF WEB-DL H264 DDP 5.1 NbT

0 Members and 1 Guest are viewing this topic.

December 02, 2018, 02:17:09 PM
  • *****************
  • Head Admin
  • Legend Member
  • *****
  • Topic Author
  • Thank You: 6878
  • Reputation: 2993
  • Activity:
    86.8%
  • Country: in
  • Posts: 19037
  • Topics: 11071
  • Join Date: Mar 2012
  • The Time Is Now......



General
Unique ID                   : 308418247358221870201556368042474720271 (0xE807319CC3512D11952A70329E59CC0F)
Complete name               : Teefa in Trouble 2018 Urdu 1080p NF WEB-DL H264 DDP 5.1 NbT.mkv
Format                      : Matroska
Format version              : Version 4
File size                   : 7.40 GiB
Duration                    : 2 h 35 min
Overall bit rate mode       : Variable
Overall bit rate            : 6 819 kb/s
Encoded date                : UTC 2018-12-02 05:28:38 / UTC 2018-10-16 00:08:58
Writing application         : mkvmerge v28.2.0 ('The Awakening') 64-bit
Writing library             : libebml v1.3.6 + libmatroska v1.4.9 / Lavf58.0.0

Video
ID                          : 1
Format                      : AVC
Format/Info                 : Advanced Video Codec
Format profile              : [email protected]
Format settings             : CABAC / 3 Ref Frames
Format settings, CABAC      : Yes
Format settings, ReFrames   : 3 frames
Codec ID                    : V_MPEG4/ISO/AVC
Duration                    : 2 h 35 min
Bit rate mode               : Variable
Bit rate                    : 6 190 kb/s
Maximum bit rate            : 9 285 kb/s
Width                       : 1 920 pixels
Height                      : 1 080 pixels
Display aspect ratio        : 16:9
Frame rate mode             : Constant
Frame rate                  : 24.000 FPS
Color space                 : YUV
Chroma subsampling          : 4:2:0
Bit depth                   : 8 bits
Scan type                   : Progressive
Bits/(Pixel*Frame)          : 0.124
Stream size                 : 6.70 GiB (91%)
Writing library             : x264 core 148 r2715 7e75228
Encoding settings           : cabac=1 / ref=3 / deblock=1:0:0 / analyse=0x1:0x111 / me=umh / subme=10 / psy=1 / psy_rd=1.00:0.00 / mixed_ref=1 / me_range=24 / chroma_me=1 / trellis=2 / 8x8dct=0 / cqm=0 / deadzone=21,11 / fast_pskip=1 / chroma_qp_offset=-2 / threads=8 / lookahead_threads=1 / sliced_threads=0 / nr=0 / decimate=1 / interlaced=0 / bluray_compat=0 / stitchable=1 / constrained_intra=0 / bframes=2 / b_pyramid=0 / b_adapt=2 / b_bias=0 / direct=3 / weightb=1 / open_gop=0 / weightp=2 / keyint=48 / keyint_min=25 / scenecut=0 / intra_refresh=0 / rc_lookahead=48 / rc=2pass / mbtree=1 / bitrate=6190 / ratetol=1.0 / qcomp=0.50 / qpmin=6 / qpmax=51 / qpstep=4 / cplxblur=20.0 / qblur=0.5 / vbv_maxrate=9285 / vbv_bufsize=12380 / nal_hrd=vbr / filler=0 / ip_ratio=1.40 / aq=1:1.00
Default                     : Yes
Forced                      : No

Audio
ID                          : 2
Format                      : E-AC-3
Format/Info                 : Enhanced AC-3
Commercial name             : Dolby Digital Plus
Codec ID                    : A_EAC3
Duration                    : 2 h 35 min
Bit rate mode               : Constant
Bit rate                    : 640 kb/s
Channel(s)                  : 6 channels
Channel layout              : L R C LFE Ls Rs
Sampling rate               : 48.0 kHz
Frame rate                  : 31.250 FPS (1536 SPF)
Compression mode            : Lossy
Stream size                 : 711 MiB (9%)
Service kind                : Complete Main
Default                     : Yes
Forced                      : No
Encoded date                : UTC 2018-10-16 00:08:58

Text
ID                          : 3
Format                      : UTF-8
Codec ID                    : S_TEXT/UTF8
Codec ID/Info               : UTF-8 Plain Text
Duration                    : 2 h 31 min
Bit rate                    : 49 b/s
Count of elements           : 1818
Stream size                 : 54.5 KiB (0%)
Title                       : English
Language                    : English
Default                     : Yes
Forced                      : Yes















































Share this topic on FacebookShare this topic on GoogleShare this topic on MySpaceShare this topic on TwitterShare this topic on Yahoo




Tags:
 

Related Topics





Back to top
Handwerk | Big Sky (2015) | CRYSTAL ICR 3.0