+ ShareSpark.net »  :::: Dubbed Zone (Dubbed English in Hindi) » English Movies Dubbed in Hindi » High Resolution Movies
|- Tower Heist (2011) 1080p BluRay x264 Dual Audio [Hindi DD5.1 640 Kbps - English DD5.1] - ESUB ~ Ranv


10% SBI and 10% Discount

Tower Heist (2011) 1080p BluRay x264 Dual Audio [Hindi DD5.1 640 Kbps - English DD5.1] - ESUB ~ Ranv

0 Members and 1 Guest are viewing this topic.

December 05, 2018, 09:45:02 PM
  • Global Moderator
  • Legend Member
  • *****
  • Topic Author
  • Thank You: 11239
  • Reputation: 2251
  • Activity:
    100%
  • Country: in
  • Posts: 5482
  • Topics: 4527
  • Join Date: Jan 2014
  • ıllıllı ѕмoĸιng ιѕ good ғor нealтн ıllıllı :)








Tower Heist (2011) 1080p BluRay x264 Dual Audio [Hindi DD5.1 640 Kbps - English DD5.1] - ESUB ~ Ranvijay


Thanks To Hammer For Hindi Audio

Buy RDP Online




Quote

Format                                   : Matroska
Format version                           : Version 4 / Version 2
File size                                : 4.45 GiB
Duration                                 : 1 h 44 min
Overall bit rate                         : 6 094 kb/s
Movie name                               : Tower Heist (2011) 1080p BluRay x264 Dual Audio [Hindi DD5.1 640 Kbps - English DD5.1] - ESUB ~ Ranvijay

Video
ID                                       : 1
Format                                   : AVC
Format/Info                              : Advanced Video Codec
Duration                                 : 1 h 44 min
Bit rate                                 : 4 999 kb/s
Width                                    : 1 920 pixels
Height                                   : 800 pixels
Display aspect ratio                     : 2.40:1
Frame rate mode                          : Constant
Frame rate                               : 23.976 (24000/1001) FPS
Color space                              : YUV
Chroma subsampling                       : 4:2:0
Bit depth                                : 8 bits
Scan type                                : Progressive
Bits/(Pixel*Frame)                       : 0.136
Stream size                              : 3.64 GiB (82%)
Title                                    : ~Ranvijay~

Audio #1
ID                                       : 2
Format                                   : AC-3
Format/Info                              : Audio Coding 3
Codec ID                                 : A_AC3
Duration                                 : 1 h 44 min
Bit rate mode                            : Constant
Bit rate                                 : 640 kb/s
Channel(s)                               : 6 channels
Channel positions                        : Front: L C R, Side: L R, LFE
Sampling rate                            : 48.0 kHz
Frame rate                               : 31.250 FPS (1536 SPF)
Bit depth                                : 16 bits
Compression mode                         : Lossy
Stream size                              : 479 MiB (11%)
Title                                    : ~Ranvijay~
Language                                 : Hindi
Service kind                             : Complete Main
Default                                  : Yes
Forced                                   : Yes

Audio #2
ID                                       : 3
Format                                   : AC-3
Format/Info                              : Audio Coding 3
Codec ID                                 : A_AC3
Duration                                 : 1 h 44 min
Bit rate mode                            : Constant
Bit rate                                 : 448 kb/s
Channel(s)                               : 6 channels
Channel positions                        : Front: L C R, Side: L R, LFE
Sampling rate                            : 48.0 kHz
Frame rate                               : 31.250 FPS (1536 SPF)
Bit depth                                : 16 bits
Compression mode                         : Lossy
Stream size                              : 335 MiB (7%)
Title                                    : ~Ranvijay~
Language                                 : English
Service kind                             : Complete Main
Default                                  : No
Forced                                   : No

Text
ID                                       : 4
Format                                   : PGS
Muxing mode                              : zlib
Codec ID                                 : S_HDMV/PGS
Codec ID/Info                            : Picture based subtitle format used on BDs/HD-DVDs
Duration                                 : 1 h 37 min
Bit rate                                 : 62.8 kb/s
Count of elements                        : 3829
Stream size                              : 43.6 MiB (1%)
Title                                    : ~Ranvijay~
Language                                 : English
Default                                  : Yes
Forced                                   : Yes

Menu
00:00:00.000                             : en:00:00:00.000
00:03:23.245                             : en:00:03:23.245
00:09:20.852                             : en:00:09:20.852
00:14:09.557                             : en:00:14:09.557
00:19:13.819                             : en:00:19:13.819
00:23:41.545                             : en:00:23:41.545
00:27:16.510                             : en:00:27:16.510
00:32:05.590                             : en:00:32:05.590
00:38:16.419                             : en:00:38:16.419
00:43:57.301                             : en:00:43:57.301
00:49:20.583                             : en:00:49:20.583
00:53:42.636                             : en:00:53:42.636
00:56:58.624                             : en:00:56:58.624
01:01:47.037                             : en:01:01:47.037
01:06:22.729                             : en:01:06:22.729
01:11:30.203                             : en:01:11:30.203
01:17:13.546                             : en:01:17:13.546
01:23:09.610                             : en:01:23:09.610
01:31:52.298                             : en:01:31:52.298
01:38:42.083                             : en:01:38:42.083














:download:

Quote


File Leeched & Uploaded From




Don't walk as you are king, walk as you don't care who the king is....!!
Never argue with an idiot. They drag you down to their level and then beat you with experience?

Share this topic on FacebookShare this topic on GoogleShare this topic on MySpaceShare this topic on TwitterShare this topic on Yahoo




Don't walk as you are king, walk as you don't care who the king is....!!

Thanks given by:


December 06, 2018, 10:32:48 AM
Reply #1
  • Conqueror
  • Elite Forces
  • *****
  • Thank You: 493
  • Reputation: 185
  • Activity:
    18.8%
  • Country: in
  • Posts: 1130
  • Topics: 490
  • Join Date: Oct 2015
  • Hit ThanX Button 🔳 N Repute Button 🔳
Hit Thnx Button 🔳 N + Repute Button 🔳 Always Appreciate UploadeR 🤗 GiVe Respect GeT Respect :yu:

Tags:
 

Related Topics





Back to top
Максим Фадеев & MOLLY | Wing Commander Academy (13) | windev mobile 23